<?xml version="1.0" standalone="no"?>
<!DOCTYPE svg PUBLIC "-//W3C//DTD SVG 1.1//EN" "http://www.w3.org/Graphics/SVG/1.1/DTD/svg11.dtd">
<svg xmlns="http://www.w3.org/2000/svg">
<defs >
<font id="BigShouldersText" horiz-adv-x="549" ><font-face
    font-family="Big Shoulders Text Thin Black"
    units-per-em="2000"
    panose-1="0 0 0 0 0 0 0 0 0 0"
    ascent="1968"
    descent="-426"
    alphabetic="0" />
<glyph unicode=" " horiz-adv-x="440" />
<glyph unicode="!" horiz-adv-x="540" d="M140 440L100 948V1600H400V948L360 440H140ZM60 0V278H440V0H60Z" />
<glyph unicode="&quot;" horiz-adv-x="846" d="M134 1032L80 1316V1600H336V1316L282 1032H134ZM564 1032L510 1316V1600H766V1316L712 1032H564Z" />
<glyph unicode="#" horiz-adv-x="1512" d="M184 0L276 428H60L118 672H328L390 956H176L234 1200H442L528 1600H832L746 1200H946L1032 1600H1334L1248 1200H1452L1398 956H1196L1134 672H1336L1276 428H1082L990 0H688L780 428H578L486 0H184ZM632 672H832L894
956H692L632 672Z" />
<glyph unicode="$" horiz-adv-x="1016" d="M377 -220V-10Q223 14 152 107T73 382Q72 414 72 452T74 529T81 600H363Q359 527 358 456T363 326Q368 277 405 251T509 224Q571 224 607 250T649 326Q653 360 654 393T655 460T649 528Q645 570 613 605T533 650L349
692Q244 716 183 767T95 894T65 1070Q64 1114 64 1148T65 1220Q73 1400 145 1494T377 1612V1840H637V1612Q792 1588 864 1494T943 1220Q945 1177 944 1115T939 1000H651Q654 1069 655 1138T653 1276Q652 1324 615 1350T509 1376Q446 1376 409 1350T365 1276Q359
1225 359 1173T365 1070Q370 1030 393 997T467 952L629 918Q742 894 811 842T914 710T951 528Q952 505 952 480T951 430T949 382Q942 199 869 106T637 -12V-220H377Z" />
<glyph unicode="%" horiz-adv-x="1390" d="M94 0L1076 1600H1284L300 0H94ZM1027 -12Q898 -12 824 51T743 240Q741 283 741 319T740 394T743 484Q748 603 821 667T1027 732Q1159 732 1232 668T1313 484Q1315 454 1315 423T1316 361T1316 299T1313 240Q1306 120
1233 54T1027 -12ZM1027 160Q1056 160 1071 172T1089 200Q1093 225 1095 265T1097 352T1095 443T1089 520Q1088 537 1074 548T1027 560Q997 560 982 549T965 520Q960 475 959 412T958 290T965 202Q968 187 983 174T1027 160ZM351 866Q222 866 148 929T67 1118Q65
1161 65 1197T64 1272T67 1362Q72 1481 145 1545T351 1610Q483 1610 556 1546T637 1362Q639 1332 639 1301T640 1239T640 1177T637 1118Q630 998 557 932T351 866ZM351 1038Q380 1038 395 1050T413 1078Q417 1103 419 1143T421 1230T419 1321T413 1398Q412 1415
398 1426T351 1438Q321 1438 306 1427T289 1398Q284 1353 283 1290T282 1169T289 1080Q292 1065 307 1052T351 1038Z" />
<glyph unicode="&amp;" horiz-adv-x="1278" d="M536 -20Q302 -20 197 73T82 380Q80 418 80 442T81 491T84 560Q90 688 142 764T266 894Q227 974 200 1052T162 1206Q137 1388 231 1504T542 1620Q749 1620 840 1516T910 1220Q898 1127 849 1041T710 874Q692 859
673 844T632 814Q662 771 696 727T764 640Q763 675 759 717T746 812H990Q996 755 1001 679T1007 522T1002 374Q1061 313 1111 263T1198 178L1004 -8Q974 22 945 51T886 110Q850 65 800 37T685 -6T536 -20ZM544 216Q583 216 613 225T665 255T698 308Q623 392 552
477T418 650Q400 631 390 606T376 548Q373 513 372 491T372 442T376 372Q381 297 420 257T544 216ZM498 1032Q552 1067 583 1100T628 1164T648 1218Q666 1310 644 1367T542 1424Q478 1424 452 1373T430 1252Q433 1203 451 1147T498 1032Z" />
<glyph unicode="&apos;" horiz-adv-x="430" d="M138 1032L80 1316V1600H350V1316L292 1032H138Z" />
<glyph unicode="(" horiz-adv-x="624" d="M346 -400Q260 -291 196 -134T96 212T60 610Q60 791 90 977T184 1327T346 1600H564Q471 1375 422 1116T372 600Q372 430 394 257T459 -83T564 -400H346Z" />
<glyph unicode=")" horiz-adv-x="584" d="M238 -400H20Q82 -250 125 -84T190 256T212 600Q212 857 163 1116T20 1600H238Q336 1490 399 1327T493 978T524 610Q524 402 489 213T389 -134T238 -400Z" />
<glyph unicode="*" horiz-adv-x="554" d="M40 1336L178 1392L40 1448L102 1552L226 1474L214 1608H340L326 1476L452 1552L514 1448L376 1392L514 1336L452 1232L326 1310L340 1176H214L226 1308L102 1232L40 1336Z" />
<glyph unicode="+" horiz-adv-x="1112" d="M442 258V602H100V826H442V1170H670V826H1012V602H670V258H442Z" />
<glyph unicode="," horiz-adv-x="542" d="M118 -284L256 0H80V284H462V26L284 -284H118Z" />
<glyph unicode="-" horiz-adv-x="932" d="M60 576V840H872V576H60Z" />
<glyph unicode="." horiz-adv-x="500" d="M60 0V278H440V0H60Z" />
<glyph unicode="/" horiz-adv-x="860" d="M60 -400L496 1600H800L364 -400H60Z" />
<glyph unicode="0" horiz-adv-x="1054" d="M527 -20Q317 -20 204 84T85 382Q81 527 80 668T80 947T85 1220Q90 1414 204 1517T527 1620Q733 1620 847 1517T967 1220Q971 1102 973 994T975 784T973 583T967 382Q960 181 844 81T527 -20ZM527 224Q655 224 661 320Q669
486 671 636T672 942T661 1278Q658 1376 527 1376Q394 1376 391 1276Q386 1149 384 1034T381 807T383 577T391 326Q394 224 527 224Z" />
<glyph unicode="1" horiz-adv-x="580" d="M168 0V1336H48L40 1442L232 1600H480V0H168Z" />
<glyph unicode="2" horiz-adv-x="1012" d="M73 0Q72 37 72 69T71 130T70 190T69 254T71 330Q74 432 109 517T215 673T391 800L531 874Q600 910 620 962T643 1056Q646 1106 647 1164T645 1274Q642 1321 608 1348T505 1376Q438 1376 409 1350T377 1282Q374 1201
374 1140T377 1000H75Q73 1039 72 1078T71 1154T71 1220Q80 1435 181 1527T505 1620Q662 1620 757 1580T898 1451T949 1220Q950 1196 950 1176T951 1137T951 1099T949 1058Q945 947 906 866T801 724T649 618L487 532Q446 510 423 474T389 398T379 330V264H925V0H73Z"
/>
<glyph unicode="3" horiz-adv-x="1019" d="M511 -20Q271 -20 164 73T51 382Q50 418 50 437T49 475T51 530H357V342Q357 285 395 255T503 224Q575 224 611 254T649 340Q651 406 651 457T649 554Q646 608 615 650T491 690L289 688L281 940L591 1336H73V1600H941L937
1344L615 948Q780 935 862 842T955 546Q956 525 956 507T957 470T957 431T955 382Q946 166 843 73T511 -20Z" />
<glyph unicode="4" horiz-adv-x="1070" d="M556 0V402H42V652L442 1600H842V664H1024V402H842V0H556ZM334 664H556L596 1032L632 1336H572L470 1032L334 664Z" />
<glyph unicode="5" horiz-adv-x="1053" d="M540 -20Q300 -20 193 73T80 382Q79 441 80 472T82 530H388Q385 505 384 467T382 393T384 342Q390 285 427 255T532 224Q604 224 639 254T678 342Q687 449 688 525T682 670Q676 726 644 753T546 780Q501 780 467 768T414
733T394 678H106V1600H958V1336H410V912H456Q485 960 546 994T690 1028Q833 1028 905 935T986 684Q990 626 991 573T990 472T984 382Q970 238 924 150T785 21T540 -20Z" />
<glyph unicode="6" horiz-adv-x="1038" d="M523 -20Q289 -20 187 73T83 382Q82 551 81 692T80 942T81 1121T83 1220Q92 1424 205 1522T521 1620Q731 1620 842 1516T959 1236Q960 1215 960 1199T961 1163T959 1110H655Q658 1142 658 1162T658 1207T655 1276Q654
1321 623 1348T523 1376Q457 1376 424 1350T389 1276Q386 1195 384 1098T381 892H435Q464 942 526 975T671 1008Q841 1008 904 929T971 664Q972 601 972 560T973 480T969 382Q957 166 857 73T523 -20ZM525 224Q593 224 627 250T663 326Q665 379 666 422T668 505T669
581T667 656Q666 707 629 733T531 760Q464 760 424 734T381 660Q381 579 382 496T387 330Q389 279 424 252T525 224Z" />
<glyph unicode="7" horiz-adv-x="980" d="M152 0L636 1336H30V1600H940V1328L470 0H152Z" />
<glyph unicode="8" horiz-adv-x="1041" d="M520 -20Q283 -20 184 77T76 382Q75 412 75 429T76 465T80 516Q91 627 135 690T266 790V832Q206 853 161 901T100 1022Q95 1046 92 1081T87 1153T86 1218Q97 1430 194 1525T520 1620Q742 1620 843 1527T954 1218Q955
1190 954 1154T949 1082T940 1022Q925 949 880 901T774 832V788Q854 752 899 688T960 518Q966 476 966 447T964 382Q954 168 853 74T520 -20ZM520 224Q591 224 624 254T658 342Q658 376 658 410T658 479T658 548Q658 605 625 635T520 666Q450 666 416 636T382 548Q382
497 382 445T382 342Q382 285 416 255T520 224ZM520 952Q589 952 623 982T658 1070Q658 1117 658 1164T658 1258Q658 1315 625 1345T520 1376Q451 1376 417 1346T382 1258Q382 1235 382 1212T382 1164T382 1117T382 1070Q382 1013 416 983T520 952Z" />
<glyph unicode="9" horiz-adv-x="1038" d="M527 -20Q298 -20 197 73T95 380Q95 396 95 414T95 451T97 490H401Q400 445 399 410T401 324Q404 279 430 252T523 224Q582 224 614 249T649 328Q654 405 656 501T659 708H613Q589 659 534 626T395 592Q310 592 235 628T112
745T65 954Q65 1013 65 1056T65 1131T65 1183T67 1218Q76 1434 180 1527T513 1620Q747 1620 848 1527T953 1218Q957 1040 958 903T958 642T953 380Q949 166 847 73T527 -20ZM517 840Q579 840 614 861T657 922Q656 1008 654 1097T647 1278Q646 1325 611 1350T511
1376Q445 1376 409 1350T373 1274Q373 1267 373 1224T372 1124T371 1016T371 940Q373 892 413 866T517 840Z" />
<glyph unicode=":" horiz-adv-x="540" d="M80 600V878H460V600H80ZM80 0V278H460V0H80Z" />
<glyph unicode=";" horiz-adv-x="562" d="M138 -284L276 0H100V284H482V26L304 -284H138ZM80 600V878H460V600H80Z" />
<glyph unicode="&lt;" horiz-adv-x="1226" d="M1106 402L120 542V896L1106 1040V796L648 752L344 748V692L648 688L1106 646V402Z" />
<glyph unicode="=" horiz-adv-x="1072" d="M80 796V1020H992V796H80ZM80 412V636H992V412H80Z" />
<glyph unicode="&gt;" horiz-adv-x="1146" d="M80 402V646L538 688L842 692V748L538 752L80 796V1040L1066 896V542L80 402Z" />
<glyph unicode="?" horiz-adv-x="1040" d="M384 468L380 516Q373 600 382 665T433 786T564 902L600 926Q623 941 634 968T648 1026T652 1080V1258Q652 1305 616 1329T516 1354Q455 1354 421 1328T384 1258Q380 1200 380 1139T382 1032H54Q52 1074 51 1097T50 1141T52
1196Q66 1426 171 1525T514 1624Q769 1624 879 1524T990 1196Q990 1192 990 1174T990 1131T990 1080Q990 962 967 892T909 784T838 728T776 696L722 668Q676 644 667 603T650 516L642 468H384ZM323 0V278H703V0H323Z" />
<glyph unicode="@" horiz-adv-x="1488" d="M742 -322Q510 -322 366 -275T155 -124T84 146Q82 246 81 342T79 541T80 764T84 1030Q87 1205 154 1313T366 1470T742 1520Q970 1520 1113 1471T1326 1313T1402 1028Q1405 946 1406 869T1408 718T1407 570T1402 422Q1398
313 1319 258T1104 202Q968 202 906 232T822 302H774Q746 256 716 228T620 200Q535 200 491 254T436 434Q431 492 430 554T431 676T436 784Q444 913 490 968T624 1024Q683 1024 713 999T774 920H804V1010H1038V428Q1038 392 1056 372T1104 352Q1131 352 1147 372T1166
430Q1170 483 1172 554T1175 707T1175 874T1168 1042Q1161 1191 1067 1257T742 1324Q517 1324 422 1259T322 1042Q318 917 316 802T314 577T316 358T322 132Q327 -7 422 -66T742 -126Q963 -126 1059 -73T1156 122Q1156 128 1156 133T1156 144H1388Q1388 138 1388
133T1388 122Q1388 -43 1323 -140T1116 -279T742 -322ZM720 364Q737 364 764 378T804 410V808Q794 831 764 844T720 858Q692 858 682 844T670 806Q665 733 664 675T664 558T670 420Q672 389 685 377T720 364Z" />
<glyph unicode="A" horiz-adv-x="1028" d="M36 0L258 1600H770L992 0H684L650 334H378L344 0H36ZM406 598H622L586 952L562 1336H466L442 952L406 598Z" />
<glyph unicode="B" horiz-adv-x="1007" d="M100 0V1600H510Q734 1600 837 1510T940 1210Q940 1182 940 1156T938 1104Q931 995 889 931T758 836V788Q850 758 893 693T940 514Q942 481 942 453T940 390Q931 182 833 91T510 0H100ZM400 264H510Q573 264 606 297T640
394Q640 421 640 447T640 500Q640 599 610 640T510 682H400V264ZM400 946H510Q573 946 606 989T640 1112Q640 1141 640 1169T640 1226Q640 1279 607 1307T510 1336H400V946Z" />
<glyph unicode="C" horiz-adv-x="1033" d="M526 -20Q294 -20 192 73T84 382Q82 494 81 597T80 800T81 1005T84 1222Q87 1429 193 1524T526 1620Q747 1620 851 1522T962 1220Q963 1187 963 1149T962 1072T960 1000H660Q661 1037 662 1077T663 1158T662 1236Q661
1311 629 1343T526 1376Q453 1376 420 1344T384 1236Q381 1126 380 1017T378 800T379 584T384 366Q386 290 419 257T526 224Q601 224 634 257T670 366Q672 409 672 445T673 518T670 600H970Q972 552 972 491T970 382Q964 166 862 73T526 -20Z" />
<glyph unicode="D" horiz-adv-x="1040" d="M100 0V1600H526Q751 1600 851 1505T956 1190Q959 1051 960 926T960 676T956 412Q952 192 852 96T526 0H100ZM400 264H526Q589 264 622 293T656 376Q659 483 660 589T662 801T661 1013T656 1226Q655 1279 622 1307T526
1336H400V264Z" />
<glyph unicode="E" horiz-adv-x="888" d="M100 0V1600H832V1336H400V946H812V682H400V264H832V0H100Z" />
<glyph unicode="F" horiz-adv-x="872" d="M100 0V1600H832V1336H400V946H812V682H400V0H100Z" />
<glyph unicode="G" horiz-adv-x="1044" d="M528 -20Q375 -20 280 20T138 149T86 382Q83 466 82 573T80 795T81 1015T86 1202Q92 1351 138 1443T280 1577T528 1620Q749 1620 850 1528T964 1220Q967 1174 967 1111T964 1000H664Q667 1066 667 1128T664 1256Q660
1321 629 1348T528 1376Q456 1376 424 1349T386 1256Q380 1151 377 1036T374 801T377 567T386 346Q391 280 423 252T528 224Q603 224 637 252T678 346Q680 369 680 401T681 466T678 522H568V782H970Q975 691 974 583T968 382Q958 166 856 73T528 -20Z" />
<glyph unicode="H" horiz-adv-x="1050" d="M100 0V1600H400V946H650V1600H950V0H650V682H400V0H100Z" />
<glyph unicode="I" horiz-adv-x="500" d="M100 0V1600H400V0H100Z" />
<glyph unicode="J" horiz-adv-x="971" d="M459 -20Q314 -20 224 20T89 149T41 382Q40 430 40 491T41 600H323Q322 564 322 519T321 428T323 346Q325 280 357 252T459 224Q528 224 558 252T589 346V1600H889V382Q889 166 790 73T459 -20Z" />
<glyph unicode="K" horiz-adv-x="1050" d="M100 0V1600H420L416 1212L382 854H456L552 1212L696 1600H1024L758 942L1036 0H732L550 640L406 360V0H100Z" />
<glyph unicode="L" horiz-adv-x="820" d="M100 0V1600H400V264H794V0H100Z" />
<glyph unicode="M" horiz-adv-x="1690" d="M100 0V1600H642L774 994L800 264H892L916 994L1050 1600H1590V0H1280V492L1338 1336H1244L1160 472L1026 0H654L532 472L446 1336H354L410 492V0H100Z" />
<glyph unicode="N" horiz-adv-x="1238" d="M100 0V1600H594L714 1090L824 264H916L860 914L836 1600H1138V0H620L500 524L418 1338H322L374 614L400 0H100Z" />
<glyph unicode="O" horiz-adv-x="1055" d="M526 -20Q294 -20 192 73T84 382Q82 495 81 598T80 801T81 1004T84 1220Q89 1435 191 1527T526 1620Q754 1620 856 1528T966 1220Q971 1107 973 1004T975 800T973 597T966 382Q959 166 857 73T526 -20ZM526 224Q600 224
632 257T666 366Q671 476 674 584T677 801T674 1018T666 1236Q665 1311 633 1343T526 1376Q453 1376 420 1344T384 1236Q379 1127 377 1018T374 801T376 585T384 366Q386 290 419 257T526 224Z" />
<glyph unicode="P" horiz-adv-x="1014" d="M100 0V1600H526Q750 1600 849 1510T956 1210Q959 1126 959 1054T956 898Q949 690 850 599T526 508H400V0H100ZM400 772H526Q589 772 621 801T656 882Q659 931 660 992T660 1115T656 1226Q653 1279 621 1307T526 1336H400V772Z" />
<glyph unicode="Q" horiz-adv-x="1055" d="M904 -328Q708 -343 610 -271T488 -20Q277 -12 183 81T84 382Q82 495 81 598T80 801T81 1004T84 1220Q89 1435 191 1527T526 1620Q754 1620 856 1528T966 1220Q971 1107 973 1004T975 800T973 597T966 382Q962 238 916
150T774 20Q770 -41 803 -69T904 -88V-328ZM526 224Q600 224 632 257T666 366Q671 476 674 584T677 801T674 1018T666 1236Q665 1311 633 1343T526 1376Q453 1376 420 1344T384 1236Q379 1127 377 1018T374 801T376 585T384 366Q386 290 419 257T526 224Z" />
<glyph unicode="R" horiz-adv-x="1014" d="M100 0V1600H506Q730 1600 829 1510T936 1210Q938 1154 938 1112T939 1028T936 930Q932 800 893 717T770 590L958 0H640L488 540H400V0H100ZM400 804H506Q569 804 601 833T636 914Q639 963 640 1016T640 1123T636 1226Q633
1279 601 1307T506 1336H400V804Z" />
<glyph unicode="S" horiz-adv-x="1016" d="M509 -20Q284 -20 183 73T73 382Q72 414 72 452T74 529T81 600H363Q359 527 358 456T363 326Q368 277 405 251T509 224Q571 224 607 250T649 326Q653 360 654 393T655 460T649 528Q645 570 613 605T533 650L349 692Q244
716 183 767T95 894T65 1070Q64 1114 64 1148T65 1220Q71 1363 118 1451T260 1579T509 1620Q733 1620 833 1528T943 1220Q945 1177 944 1115T939 1000H651Q654 1069 655 1138T653 1276Q652 1324 615 1350T509 1376Q446 1376 409 1350T365 1276Q359 1225 359 1173T365
1070Q370 1030 393 997T467 952L629 918Q742 894 811 842T914 710T951 528Q952 505 952 480T951 430T949 382Q940 166 838 73T509 -20Z" />
<glyph unicode="T" horiz-adv-x="874" d="M287 0V1336H10V1600H864V1336H587V0H287Z" />
<glyph unicode="U" horiz-adv-x="1054" d="M528 -20Q294 -20 192 73T86 382Q82 684 82 991T86 1600H386Q382 1399 382 1186T382 760T386 346Q386 288 422 256T528 224Q596 224 632 256T668 346Q670 547 671 760T673 1186T668 1600H968Q973 1299 973 992T968 382Q965
166 863 73T528 -20Z" />
<glyph unicode="V" horiz-adv-x="1048" d="M262 0L30 1600H340L458 798L476 264H572L590 798L708 1600H1018L786 0H262Z" />
<glyph unicode="W" horiz-adv-x="1732" d="M192 0L40 1600H342L394 868L424 264H518L514 868L654 1590H1078L1218 868L1214 264H1308L1338 868L1390 1600H1692L1540 0H1010L936 446L912 1336H820L796 446L722 0H192Z" />
<glyph unicode="X" horiz-adv-x="964" d="M14 0L264 832L20 1600H314L418 1226L444 952H524L550 1226L650 1600H944L712 822L950 0H656L550 394L524 688H444L418 394L308 0H14Z" />
<glyph unicode="Y" horiz-adv-x="928" d="M314 0V510H282L14 1600H320L406 1212L436 742H492L522 1212L608 1600H914L644 510H614V0H314Z" />
<glyph unicode="Z" horiz-adv-x="866" d="M30 0V250L514 1336H54V1600H836V1344L334 264H806V0H30Z" />
<glyph unicode="[" horiz-adv-x="752" d="M80 -400V1600H692V1460H388V-260H692V-400H80Z" />
<glyph unicode="\" horiz-adv-x="820" d="M760 -400H456L20 1600H324L760 -400Z" />
<glyph unicode="]" horiz-adv-x="752" d="M672 -400H60V-260H364V1460H60V1600H672V-400Z" />
<glyph unicode="^" horiz-adv-x="904" d="M80 860L354 1378H550L824 860H628L452 1192L276 860H80Z" />
<glyph unicode="_" horiz-adv-x="1352" d="M60 -120V-80H1292V-120H60Z" />
<glyph unicode="`" horiz-adv-x="576" d="M258 1280L74 1558H286L460 1280H258Z" />
<glyph unicode="a" horiz-adv-x="1003" d="M345 -16Q204 -16 137 49T55 274Q54 291 54 318T55 360Q62 442 95 499T197 600T383 682Q443 702 496 715T619 744V892Q619 946 589 971T497 996Q443 996 417 975T387 906Q386 895 386 857T385 781T387 738H97Q96 750
95 791T95 872Q100 993 139 1070T267 1183T507 1220Q662 1220 750 1180T876 1052T913 824L911 0H613V130H567Q530 54 482 19T345 -16ZM471 198Q516 198 555 220T615 280L617 554Q577 545 536 535T459 510Q396 486 378 446T357 360Q356 335 356 326T357 296Q362
248 390 223T471 198Z" />
<glyph unicode="b" horiz-adv-x="1050" d="M678 -20Q576 -20 527 19T432 130H400V0H94V1600H400V1070H452Q497 1142 547 1181T698 1220Q830 1220 898 1142T976 882Q978 830 979 754T981 596T980 441T976 318Q967 137 889 59T678 -20ZM566 198Q622 198 644 221T670
292Q674 351 676 429T678 593T678 759T672 904Q669 951 646 976T566 1002Q520 1002 470 979T400 916V284Q420 245 470 222T566 198Z" />
<glyph unicode="c" horiz-adv-x="970" d="M607 738Q608 758 608 790T609 854T607 906Q604 950 582 973T495 996Q432 996 408 975T381 906Q378 815 377 740T375 595T376 456T381 302Q383 250 409 227T499 204Q562 204 583 229T607 304Q609 334 609 371T607 466H905Q907
454 908 412T907 336Q898 146 803 63T499 -20Q277 -20 182 64T75 336Q72 383 71 457T70 611T71 759T75 860Q89 1054 187 1137T495 1220Q707 1220 802 1139T907 872Q909 839 908 793T905 738H607Z" />
<glyph unicode="d" horiz-adv-x="1051" d="M359 -20Q226 -20 155 58T75 318Q72 369 71 445T70 604T71 761T75 882Q84 1064 157 1142T363 1220Q464 1220 514 1181T609 1070H651V1600H957V0H651V130H607Q564 58 511 19T359 -20ZM485 198Q530 198 581 221T651 284V916Q632
955 581 978T485 1002Q434 1002 409 980T381 916Q375 815 373 708T373 494T381 292Q384 244 407 221T485 198Z" />
<glyph unicode="e" horiz-adv-x="969" d="M499 -20Q277 -20 182 64T75 336Q72 383 71 457T70 611T71 759T75 860Q89 1054 187 1137T495 1220Q707 1220 802 1139T907 872Q908 848 908 793T909 672T905 550H375Q375 492 376 432T381 302Q383 250 409 227T499 204Q558
204 581 227T607 304Q609 334 609 371T607 466H905Q907 454 908 412T907 336Q898 146 803 63T499 -20ZM377 756H609Q609 790 609 821T609 874T607 906Q604 954 579 975T495 996Q432 996 408 975T381 906Q380 866 379 829T377 756Z" />
<glyph unicode="f" horiz-adv-x="740" d="M169 0V974H25V1200H169V1266Q168 1457 273 1539T597 1622Q633 1622 674 1618T755 1608V1390Q716 1390 676 1390T597 1390Q537 1390 506 1364T475 1290V1200H703V974H475V0H169Z" />
<glyph unicode="g" horiz-adv-x="1059" d="M471 -404Q309 -404 211 -356T89 -220Q86 -206 84 -184T85 -146Q94 -93 126 -59T219 -18V24Q164 32 131 62T89 140Q86 164 87 177T89 206Q95 250 137 276T245 312V354Q158 392 115 471T63 674Q62 705 61 730T60 776T61
818T63 860Q73 989 119 1068T257 1184T491 1220Q629 1220 718 1187T853 1082H895Q904 1145 941 1172T1057 1200V974H1025Q974 974 946 954T917 874V818Q917 799 917 783T917 751T918 717T915 674Q907 545 862 466T726 349T491 312Q395 312 351 300T307 258V252Q307
232 318 221T367 204T481 198Q696 195 801 132T931 -54Q934 -70 935 -95T931 -150Q916 -241 865 -297T717 -378T471 -404ZM493 -200Q547 -200 589 -192T657 -167T693 -128Q699 -111 698 -96T691 -66Q682 -44 656 -29T589 -6T493 2Q420 2 374 -15T315 -66Q311 -82
311 -98T315 -128Q323 -151 346 -167T407 -191T493 -200ZM491 536Q548 536 583 561T621 630Q623 661 624 693T626 758T625 827T621 900Q618 945 585 970T491 996Q428 996 394 970T357 896Q356 858 355 825T353 762T354 701T357 638Q360 589 395 563T491 536Z" />
<glyph unicode="h" horiz-adv-x="1070" d="M94 0V1600H400V1070H452Q497 1142 547 1181T698 1220Q833 1220 904 1142T976 882L980 0H674L670 908Q670 956 646 979T568 1002Q520 1002 470 979T400 916V0H94Z" />
<glyph unicode="i" horiz-adv-x="488" d="M94 1374V1600H394V1374H94ZM94 0V1200H394V0H94Z" />
<glyph unicode="j" horiz-adv-x="488" d="M94 1374V1600H394V1374H94ZM-32 -426Q-69 -426 -112 -422T-194 -412V-190Q-164 -191 -115 -192T-32 -194Q30 -194 62 -169T94 -98V1200H394V-70Q394 -260 291 -343T-32 -426Z" />
<glyph unicode="k" horiz-adv-x="960" d="M94 0V1600H378V1296L342 744H390L488 998L606 1200H920L658 752L966 0H654L466 460L386 344V0H94Z" />
<glyph unicode="l" horiz-adv-x="488" d="M94 0V1600H394V0H94Z" />
<glyph unicode="m" horiz-adv-x="1604" d="M94 0V1200H396V1070H450Q494 1142 540 1181T686 1220Q779 1220 843 1180T938 1050H984Q1028 1122 1084 1171T1240 1220Q1369 1220 1441 1142T1514 882V0H1212V908Q1212 958 1184 980T1108 1002Q1071 1002 1029 977T962
916V0H658V908Q658 956 633 979T556 1002Q513 1002 465 979T396 916V0H94Z" />
<glyph unicode="n" horiz-adv-x="1070" d="M94 0V1200H394V1070H452Q497 1142 548 1181T698 1220Q833 1220 906 1142T980 882V0H680V908Q680 956 651 979T568 1002Q522 1002 468 979T394 916V0H94Z" />
<glyph unicode="o" horiz-adv-x="1010" d="M506 -20Q353 -20 261 20T126 148T74 382Q72 420 71 478T70 602T71 726T74 820Q83 967 127 1055T262 1181T506 1220Q662 1220 753 1179T886 1050T936 820Q938 782 939 723T941 599T940 476T936 382Q927 237 885 149T752
20T506 -20ZM506 204Q575 204 604 230T634 306Q637 395 638 468T640 609T639 746T634 896Q633 944 604 970T506 996Q439 996 408 968T374 896Q372 835 371 765T370 618T371 464T376 306Q378 257 408 231T506 204Z" />
<glyph unicode="p" horiz-adv-x="1050" d="M94 -400V1200H400V1070H442Q487 1142 536 1181T688 1220Q820 1220 893 1142T976 882Q978 832 979 756T981 597T980 440T976 318Q967 137 886 59T672 -20Q599 -20 546 14T442 130H400V-400H94ZM548 198Q602 198 634 221T670
292Q675 360 677 440T679 604T677 768T670 916Q667 958 642 980T566 1002Q520 1002 470 979T400 916V284Q423 238 458 218T548 198Z" />
<glyph unicode="q" horiz-adv-x="1051" d="M651 -400V130H613Q564 49 511 15T383 -20Q250 -20 167 58T75 318Q72 371 71 447T70 606T71 761T75 882Q84 1064 157 1142T363 1220Q464 1220 514 1181T607 1070H651V1200H957V-400H651ZM503 198Q557 198 593 218T651
284V916Q632 955 581 978T485 1002Q437 1002 410 981T379 906Q374 817 373 702T374 476T381 290Q384 244 417 221T503 198Z" />
<glyph unicode="r" horiz-adv-x="748" d="M94 0V1200H402V1050H456Q468 1139 516 1173T640 1208Q667 1208 693 1206T734 1202V974H644Q539 974 478 945T402 844V0H94Z" />
<glyph unicode="s" horiz-adv-x="926" d="M458 -20Q253 -20 165 63T68 336Q67 373 68 404T70 446H338Q335 388 336 357T338 302Q341 248 371 226T458 204Q527 204 558 227T590 304Q590 329 590 333T590 340T590 368Q590 398 574 420T516 452L366 490Q269 515 201
554T96 654T60 802Q60 817 60 831T60 858Q60 1052 153 1136T472 1220Q676 1220 763 1139T860 872Q862 852 861 811T858 758H580Q581 778 581 807T582 863T580 906Q577 954 554 975T472 996Q409 996 385 975T358 906Q358 903 357 888T356 828Q356 786 374 763T440
728L572 698Q721 665 796 594T872 384Q872 371 872 357T872 328Q872 142 776 61T458 -20Z" />
<glyph unicode="t" horiz-adv-x="740" d="M602 -20Q361 -20 257 62T152 340L150 974H30V1200H156V1540H462V1200H688V974H454L458 304Q458 243 491 223T602 202Q629 202 654 203T710 204V-10Q686 -14 660 -17T602 -20Z" />
<glyph unicode="u" horiz-adv-x="1062" d="M376 -20Q244 -20 165 58T86 318V1200H388L392 292Q392 244 416 221T494 198Q542 198 592 221T662 284V1200H968V0H662V130H622Q573 49 515 15T376 -20Z" />
<glyph unicode="v" horiz-adv-x="934" d="M214 0L22 1200H332L406 598L426 220H506L526 598L602 1200H912L718 0H214Z" />
<glyph unicode="w" horiz-adv-x="1583" d="M184 0L22 1200H328L378 598L396 220H479L485 598L542 1200H1042L1097 598L1106 220H1183L1201 598L1255 1200H1561L1395 0H886L849 468L836 980H746L733 468L699 0H184Z" />
<glyph unicode="x" horiz-adv-x="884" d="M15 0L235 636L19 1200H315L395 952L413 756H471L491 952L569 1200H865L651 630L869 0H573L491 298L471 540H415L395 298L311 0H15Z" />
<glyph unicode="y" horiz-adv-x="948" d="M232 -422Q196 -422 156 -418T76 -408V-186Q105 -187 153 -188T232 -190Q319 -190 353 -167T396 -90L410 0H257L30 1200H340L398 658L445 220H520L555 658L610 1200H920L702 -66Q682 -181 638 -260T498 -381T232 -422Z" />
<glyph unicode="z" horiz-adv-x="844" d="M42 0V190L480 980H50V1200H806V1004L360 220H802V0H42Z" />
<glyph unicode="{" horiz-adv-x="820" d="M760 -404Q625 -404 513 -370T332 -254T264 -32Q264 -10 265 30T268 120T272 217T275 303T276 360Q276 441 246 457T158 474H60V718H158Q215 718 245 734T276 832Q276 851 275 889T273 976T270 1074T267 1165T266 1228Q266
1369 333 1450T513 1566T760 1600V1456Q711 1456 666 1424T593 1339T564 1228Q564 1211 565 1184T567 1124T570 1055T573 987T574 926Q574 806 524 721T366 618V578Q473 560 523 475T574 270Q574 243 573 210T571 141T568 73T565 12T564 -32Q564 -91 592 -143T666
-227T760 -260V-404Z" />
<glyph unicode="|" horiz-adv-x="460" d="M80 1840H380V-240H80V1840Z" />
<glyph unicode="}" horiz-adv-x="820" d="M60 -404V-260Q109 -260 154 -228T227 -143T256 -32Q256 -15 255 12T253 72T250 141T247 209T246 270Q246 390 297 475T454 578V618Q348 636 297 721T246 926Q246 953 247 986T249 1055T252 1123T255 1184T256 1228Q256
1287 228 1339T154 1423T60 1456V1600Q195 1600 307 1566T487 1451T554 1228Q554 1206 553 1165T551 1075T548 977T545 890T544 832Q544 751 574 735T662 718H760V474H662Q605 474 575 458T544 360Q544 341 545 303T548 217T552 120T555 31T556 -32Q556 -173 489
-254T308 -369T60 -404Z" />
<glyph unicode="~" horiz-adv-x="1110" d="M734 552Q667 552 617 573T525 621T446 669T364 690Q310 690 279 659T242 572H80Q92 757 173 830T372 904Q446 904 496 884T585 837T659 790T740 770Q797 770 830 795T868 866H1030Q1021 697 942 625T734 552Z" />
<glyph unicode="&#xa0;" horiz-adv-x="440" />
<glyph unicode="&#xa1;" horiz-adv-x="540" d="M140 760H360L400 252V-400H100V252L140 760ZM60 1200H440V922H60V1200Z" />
<glyph unicode="&#xa2;" horiz-adv-x="970" d="M357 0V190Q218 214 152 297T75 536Q72 576 71 647T70 800T71 952T75 1060Q86 1219 152 1302T357 1410V1600H621V1412Q765 1391 832 1310T907 1072Q909 1039 908 993T905 938H607Q608 958 608 990T609 1054T607 1106Q604
1150 582 1173T495 1196Q432 1196 408 1175T381 1106Q378 1015 377 940T375 795T376 656T381 502Q383 450 409 427T499 404Q562 404 583 429T607 504Q609 534 609 571T607 666H905Q907 654 908 612T907 536Q900 376 833 293T621 188V0H357Z" />
<glyph unicode="&#xa3;" horiz-adv-x="1094" d="M138 0V258Q165 270 187 315T223 439T236 628Q236 664 233 696T224 756H80V900H186Q170 948 155 996T131 1100T122 1222Q124 1405 227 1512T562 1620Q789 1620 889 1528T996 1220Q997 1182 997 1157T997 1099T994
1000H690Q691 1025 691 1066T692 1151T693 1229T692 1276Q691 1324 657 1350T562 1376Q498 1376 462 1350T426 1276Q426 1219 439 1161T471 1038T504 900H698V756H524Q526 735 527 713T528 668Q528 554 499 458T416 302V264H1014V0H138Z" />
<glyph unicode="&#xa4;" horiz-adv-x="1256" d="M208 46L88 150L250 332Q228 376 217 433T200 562Q198 600 197 658T196 782T197 906T200 1000Q205 1072 217 1129T252 1232L80 1418L194 1522L358 1346Q452 1400 632 1400Q804 1400 898 1350L1062 1518L1176 1410L1008
1238Q1032 1193 1045 1134T1062 1000Q1064 962 1065 903T1067 779T1066 656T1062 562Q1058 484 1044 424T1006 316L1154 152L1036 46L890 206Q801 160 632 160Q452 160 358 214L208 46ZM632 384Q701 384 730 410T760 486Q763 575 764 648T766 789T765 926T760 1076Q759
1124 730 1150T632 1176Q565 1176 534 1148T500 1076Q498 1015 497 945T496 798T497 644T502 486Q504 437 534 411T632 384Z" />
<glyph unicode="&#xa5;" horiz-adv-x="928" d="M314 0V126H108V270H314V330H108V474H314V510H282L14 1600H320L406 1212L436 742H492L522 1212L608 1600H914L644 510H614V474H822V330H614V270H822V126H614V0H314Z" />
<glyph unicode="&#xa6;" horiz-adv-x="460" d="M80 1840H380V1016H80V1840ZM80 536H380V-240H80V536Z" />
<glyph unicode="&#xa7;" horiz-adv-x="976" d="M480 -420Q344 -420 261 -392T137 -294T90 -96Q89 -75 89 -39T90 28T92 66H360Q358 22 358 -5T358 -53T360 -96Q363 -150 393 -173T480 -196Q549 -196 580 -173T612 -96Q612 -63 612 -31T612 34Q612 64 599 83T538
116L392 156Q251 195 169 265T82 468Q81 512 81 551T82 642Q85 743 129 805T240 894V932Q179 950 134 992T82 1116Q79 1154 79 1204T82 1284Q95 1413 133 1481T255 1575T494 1600Q698 1600 785 1519T882 1252Q884 1230 884 1182T880 1098H602Q603 1129 603 1166T604
1235T602 1286Q599 1334 575 1345T494 1356Q433 1356 410 1346T380 1288Q377 1264 376 1213T378 1114Q380 1078 394 1053T462 1016L594 986Q740 953 813 861T894 632Q897 574 897 544T894 472Q888 387 845 332T742 252V222Q808 200 850 149T896 24Q898 -3 897 -37T894
-94Q885 -218 845 -289T717 -390T480 -420ZM496 376Q564 376 589 402T620 476Q624 502 625 530T626 587T620 644Q614 691 589 716T496 742Q432 742 404 717T370 644Q364 598 365 554T370 476Q378 428 405 402T496 376Z" />
<glyph unicode="&#xa8;" horiz-adv-x="736" d="M422 1310V1508H620V1310H422ZM116 1310V1508H314V1310H116Z" />
<glyph unicode="&#xa9;" horiz-adv-x="1370" d="M686 -10Q491 -10 356 61T151 268T80 600Q80 796 150 932T356 1139T686 1210Q979 1210 1134 1052T1290 600Q1290 404 1221 268T1016 61T686 -10ZM686 130Q899 130 1013 252T1128 600Q1128 827 1014 948T686 1070Q472
1070 357 949T242 600Q242 374 357 252T686 130ZM688 238Q561 238 502 289T434 460Q433 479 433 518T432 602T432 684T434 734Q442 856 501 907T686 958Q815 958 870 908T934 744Q936 726 935 708T932 684H752Q754 699 753 725T752 764Q752 794 737 807T686 820Q652
820 637 807T620 762Q617 713 617 660T619 550T620 436Q620 403 637 390T688 376Q721 376 735 389T752 436Q754 453 754 469T752 516H932Q934 509 935 494T934 458Q925 340 871 289T688 238Z" />
<glyph unicode="&#xaa;" horiz-adv-x="846" d="M314 754Q200 754 150 801T82 964Q81 973 81 992T82 1024Q93 1114 149 1162T344 1250Q391 1264 434 1271T530 1288Q530 1311 529 1334T526 1382Q525 1411 510 1429T434 1448Q395 1448 374 1436T346 1388Q345 1384
345 1357T346 1304T348 1276H116Q115 1279 114 1294T113 1331T114 1376Q122 1499 193 1559T442 1620Q567 1620 636 1590T733 1495T764 1326Q765 1285 765 1233T766 1124T766 1005T765 883T764 766H524Q524 792 525 815T526 860H492Q464 808 426 781T314 754ZM412
920Q453 920 485 938T532 974Q532 1018 532 1059T532 1144Q496 1138 459 1131T402 1118Q354 1106 339 1081T318 1026Q317 1013 317 1001T318 984Q318 950 345 935T412 920Z" />
<glyph unicode="&#xab;" horiz-adv-x="838" d="M634 838L276 494V766L634 1110V838ZM634 150L276 494V766L634 422V150ZM758 838L400 494V766L758 1110V838ZM758 150L400 494V766L758 422V150Z" />
<glyph unicode="&#xac;" horiz-adv-x="1072" d="M764 408V796H80V1020H992V408H764Z" />
<glyph unicode="&#xad;" horiz-adv-x="932" d="M60 576V840H872V576H60Z" />
<glyph unicode="&#xae;" horiz-adv-x="986" d="M494 962Q295 962 188 1069T80 1372Q80 1570 187 1676T494 1782Q694 1782 800 1676T906 1372Q906 1176 800 1069T494 962ZM494 1052Q655 1052 734 1132T814 1372Q814 1534 735 1613T494 1692Q334 1692 253 1613T172
1372Q172 1212 253 1132T494 1052ZM370 1176V1600H502Q576 1600 608 1573T644 1480Q644 1480 644 1475T644 1462Q644 1428 627 1407T572 1376V1362Q610 1353 625 1334T642 1276Q643 1261 644 1248T646 1218T644 1176H542Q542 1202 540 1232T538 1290Q538 1330 502
1330H474V1176H370ZM474 1418H504Q522 1418 532 1427T542 1452Q542 1460 542 1468T542 1486Q542 1512 502 1512H474V1418Z" />
<glyph unicode="&#xaf;" horiz-adv-x="972" d="M130 1424H842V1290H130V1424Z" />
<glyph unicode="&#xb0;" horiz-adv-x="638" d="M320 1182Q255 1182 201 1212T113 1291T80 1400Q80 1460 113 1510T200 1590T320 1620Q384 1620 438 1590T525 1510T558 1400Q558 1341 525 1292T438 1212T320 1182ZM320 1300Q368 1300 402 1329T436 1400Q436 1444
402 1473T320 1502Q271 1502 237 1473T202 1400Q202 1358 236 1329T320 1300Z" />
<glyph unicode="&#xb1;" horiz-adv-x="1112" d="M442 438V602H80V826H442V1050H670V826H1032V602H670V438H442ZM80 174V354H1032V174H80Z" />
<glyph unicode="&#xb2;" horiz-adv-x="697" d="M73 878Q72 961 72 990T73 1042Q76 1107 128 1159T271 1248L361 1284Q393 1296 401 1310T413 1346Q416 1367 416 1377T413 1404Q412 1418 398 1428T353 1438Q298 1438 295 1404Q292 1380 294 1348T297 1306H77Q76
1321 75 1338T75 1376Q81 1495 154 1552T351 1610Q491 1610 564 1550T637 1376Q637 1371 637 1367T637 1358T637 1348Q637 1272 588 1219T449 1132L341 1092Q328 1088 316 1081T303 1068V1066H613V878H73Z" />
<glyph unicode="&#xb3;" horiz-adv-x="706" d="M356 868Q214 868 136 924T58 1086Q58 1088 58 1091T58 1099T60 1108H282Q279 1104 279 1099T280 1088Q280 1067 298 1054T350 1040Q385 1040 402 1051T420 1082Q420 1090 420 1097T420 1112Q420 1136 402 1149T350
1162H214L208 1318L348 1412H80V1600H626L624 1416L460 1322Q549 1309 596 1257T644 1116Q644 1111 644 1106T644 1095T644 1084Q644 981 570 925T356 868Z" />
<glyph unicode="&#xb4;" horiz-adv-x="566" d="M80 1280L274 1558H486L282 1280H80Z" />
<glyph unicode="&#xb5;" horiz-adv-x="1076" d="M84 -400L80 1200H384L386 292Q386 244 413 221T492 198Q537 198 588 221T658 284V1200H964V248Q964 170 972 105T996 0H692Q682 24 675 57T664 130H616Q583 75 548 42T468 -6Q436 -17 388 -20V-400H84Z" />
<glyph unicode="&#xb6;" horiz-adv-x="1184" d="M576 -200V654H508Q369 654 279 688T140 810T82 1056Q80 1076 80 1110T81 1172T82 1202Q89 1345 131 1432T265 1560T508 1600H1104V1440H1016V-200H832V1440H760V-200H576Z" />
<glyph unicode="&#xb7;" horiz-adv-x="378" d="M80 728V946H298V728H80Z" />
<glyph unicode="&#xb8;" horiz-adv-x="496" d="M74 -334V-194H138Q201 -194 227 -169T246 -86L234 0H386L398 -86Q416 -218 353 -276T138 -334H74Z" />
<glyph unicode="&#xb9;" horiz-adv-x="461" d="M151 884V1430H31L27 1502L201 1604H381V884H151Z" />
<glyph unicode="&#xba;" horiz-adv-x="852" d="M426 752Q249 752 171 818T84 1052Q83 1071 82 1098T81 1155T80 1216T81 1274T84 1322Q94 1429 127 1494T230 1590T422 1620Q611 1620 686 1549T770 1322Q771 1302 772 1274T773 1215T774 1154T773 1097T770 1052Q760
948 729 882T626 784T426 752ZM428 924Q484 924 506 942T530 992Q533 1048 534 1097T536 1193T535 1287T530 1384Q529 1413 506 1430T428 1448Q373 1448 350 1430T324 1382Q319 1304 318 1250T317 1139T324 992Q326 961 349 943T428 924Z" />
<glyph unicode="&#xbb;" horiz-adv-x="778" d="M400 838V1110L758 766V494L400 838ZM400 150V422L758 766V494L400 150ZM20 838V1110L378 766V494L20 838ZM20 150V422L378 766V494L20 150Z" />
<glyph unicode="&#xbc;" horiz-adv-x="1214" d="M151 882V1428H31L27 1500L201 1602H381V882H151ZM-173 0L927 1600H1151L49 0H-173ZM1070 720V326H1170V140H1070V0H862V140H550V320L790 720H1070ZM862 326L892 460L916 532H880L834 460L770 326H862Z" />
<glyph unicode="&#xbd;" horiz-adv-x="1242" d="M151 882V1428H31L27 1500L201 1602H381V882H151ZM-173 0L927 1600H1151L49 0H-173ZM618 0Q617 83 617 112T618 164Q621 229 673 281T816 370L906 406Q938 418 946 432T958 468Q961 489 961 499T958 526Q957 540
943 550T898 560Q843 560 840 526Q837 502 839 470T842 428H622Q621 443 620 460T620 498Q626 617 699 674T896 732Q1036 732 1109 672T1182 498Q1182 493 1182 489T1182 480T1182 470Q1182 394 1133 341T994 254L886 214Q873 210 861 203T848 190V188H1158V0H618Z"
/>
<glyph unicode="&#xbe;" horiz-adv-x="1539" d="M356 868Q214 868 136 924T58 1086Q58 1088 58 1091T58 1099T60 1108H282Q279 1104 279 1099T280 1088Q280 1067 298 1054T350 1040Q385 1040 402 1051T420 1082Q420 1090 420 1097T420 1112Q420 1136 402 1149T350
1162H214L208 1318L348 1412H80V1600H626L624 1416L460 1322Q549 1309 596 1257T644 1116Q644 1111 644 1106T644 1095T644 1084Q644 981 570 925T356 868ZM152 0L1252 1600H1476L374 0H152ZM1395 720V326H1495V140H1395V0H1187V140H875V320L1115 720H1395ZM1187
326L1217 460L1241 532H1205L1159 460L1095 326H1187Z" />
<glyph unicode="&#xbf;" horiz-adv-x="1040" d="M526 -424Q271 -424 161 -324T50 4Q50 8 50 26T50 69T50 120Q50 238 73 308T131 416T202 472T264 504L318 532Q365 556 374 597T390 684L398 732H656L660 684Q667 600 658 535T607 414T476 298L440 274Q417 259
406 232T392 175T388 120V-58Q388 -104 424 -129T524 -154Q586 -154 619 -128T656 -58Q661 1 661 62T658 168H986Q988 126 989 103T990 59T988 4Q975 -225 870 -324T526 -424ZM337 922V1200H717V922H337Z" />
<glyph unicode="&#xc0;" horiz-adv-x="1028" d="M36 0L258 1600H770L992 0H684L650 334H378L344 0H36ZM406 598H622L586 952L562 1336H466L442 952L406 598ZM382 1680L198 1958H410L584 1680H382Z" />
<glyph unicode="&#xc1;" horiz-adv-x="1028" d="M36 0L258 1600H770L992 0H684L650 334H378L344 0H36ZM406 598H622L586 952L562 1336H466L442 952L406 598ZM422 1680L616 1958H828L624 1680H422Z" />
<glyph unicode="&#xc2;" horiz-adv-x="1028" d="M36 0L258 1600H770L992 0H684L650 334H378L344 0H36ZM406 598H622L586 952L562 1336H466L442 952L406 598ZM240 1682L420 1960H600L780 1682H582L510 1806L438 1682H240Z" />
<glyph unicode="&#xc3;" horiz-adv-x="1028" d="M36 0L258 1600H770L992 0H684L650 334H378L344 0H36ZM406 598H622L586 952L562 1336H466L442 952L406 598ZM676 1900H792Q785 1783 743 1732T622 1680Q574 1680 546 1694T498 1728T459 1761T411 1776Q379 1776
368 1755T352 1694H236Q245 1814 286 1870T411 1926Q459 1926 486 1912T532 1879T569 1846T619 1832Q650 1832 662 1849T676 1900Z" />
<glyph unicode="&#xc4;" horiz-adv-x="1028" d="M36 0L258 1600H770L992 0H684L650 334H378L344 0H36ZM406 598H622L586 952L562 1336H466L442 952L406 598ZM568 1710V1908H766V1710H568ZM262 1710V1908H460V1710H262Z" />
<glyph unicode="&#xc5;" horiz-adv-x="1028" d="M36 0L258 1600H770L992 0H684L650 334H378L344 0H36ZM406 598H622L586 952L562 1336H466L442 952L406 598ZM514 1670Q426 1670 363 1733T300 1884Q300 1973 363 2035T514 2098Q603 2098 665 2036T728 1884Q728
1796 666 1733T514 1670ZM514 1824Q540 1824 557 1841T574 1884Q574 1910 557 1927T514 1944Q489 1944 472 1927T454 1884Q454 1859 471 1842T514 1824Z" />
<glyph unicode="&#xc6;" horiz-adv-x="1476" d="M36 0L368 1600H1420V1336H988V946H1400V682H988V264H1420V0H688V334H436L364 0H36ZM492 598H688V1336H596L552 872L492 598Z" />
<glyph unicode="&#xc7;" horiz-adv-x="1033" d="M526 -20Q294 -20 192 73T84 382Q82 494 81 597T80 800T81 1005T84 1222Q87 1429 193 1524T526 1620Q747 1620 851 1522T962 1220Q963 1187 963 1149T962 1072T960 1000H660Q661 1037 662 1077T663 1158T662 1236Q661
1311 629 1343T526 1376Q453 1376 420 1344T384 1236Q381 1126 380 1017T378 800T379 584T384 366Q386 290 419 257T526 224Q601 224 634 257T670 366Q672 409 672 445T673 518T670 600H970Q972 552 972 491T970 382Q964 166 862 73T526 -20ZM282 -314V-174H346Q409
-174 435 -149T454 -66L442 20H594L606 -66Q624 -198 561 -256T346 -314H282Z" />
<glyph unicode="&#xc8;" horiz-adv-x="888" d="M100 0V1600H832V1336H400V946H812V682H400V264H832V0H100ZM336 1680L152 1958H364L538 1680H336Z" />
<glyph unicode="&#xc9;" horiz-adv-x="888" d="M100 0V1600H832V1336H400V946H812V682H400V264H832V0H100ZM376 1680L570 1958H782L578 1680H376Z" />
<glyph unicode="&#xca;" horiz-adv-x="888" d="M100 0V1600H832V1336H400V946H812V682H400V264H832V0H100ZM194 1682L374 1960H554L734 1682H536L464 1806L392 1682H194Z" />
<glyph unicode="&#xcb;" horiz-adv-x="888" d="M100 0V1600H832V1336H400V946H812V682H400V264H832V0H100ZM522 1710V1908H720V1710H522ZM216 1710V1908H414V1710H216Z" />
<glyph unicode="&#xcc;" horiz-adv-x="500" d="M100 0V1600H400V0H100ZM118 1680L-66 1958H146L320 1680H118Z" />
<glyph unicode="&#xcd;" horiz-adv-x="500" d="M100 0V1600H400V0H100ZM158 1680L352 1958H564L360 1680H158Z" />
<glyph unicode="&#xce;" horiz-adv-x="500" d="M100 0V1600H400V0H100ZM-24 1682L156 1960H336L516 1682H318L246 1806L174 1682H-24Z" />
<glyph unicode="&#xcf;" horiz-adv-x="500" d="M100 0V1600H400V0H100ZM304 1710V1908H502V1710H304ZM-2 1710V1908H196V1710H-2Z" />
<glyph unicode="&#xd0;" horiz-adv-x="1138" d="M90 946H616V802H90V946ZM198 0V1600H624Q849 1600 949 1505T1054 1190Q1057 1051 1058 926T1058 676T1054 412Q1050 192 950 96T624 0H198ZM498 264H624Q687 264 720 293T754 376Q757 483 758 589T760 801T759
1013T754 1226Q753 1279 720 1307T624 1336H498V264Z" />
<glyph unicode="&#xd1;" horiz-adv-x="1238" d="M100 0V1600H594L714 1090L824 264H916L860 914L836 1600H1138V0H620L500 524L418 1338H322L374 614L400 0H100ZM776 1900H892Q885 1783 843 1732T722 1680Q674 1680 646 1694T598 1728T559 1761T511 1776Q479 1776
468 1755T452 1694H336Q345 1814 386 1870T511 1926Q559 1926 586 1912T632 1879T669 1846T719 1832Q750 1832 762 1849T776 1900Z" />
<glyph unicode="&#xd2;" horiz-adv-x="1055" d="M526 -20Q294 -20 192 73T84 382Q82 495 81 598T80 801T81 1004T84 1220Q89 1435 191 1527T526 1620Q754 1620 856 1528T966 1220Q971 1107 973 1004T975 800T973 597T966 382Q959 166 857 73T526 -20ZM526 224Q600
224 632 257T666 366Q671 476 674 584T677 801T674 1018T666 1236Q665 1311 633 1343T526 1376Q453 1376 420 1344T384 1236Q379 1127 377 1018T374 801T376 585T384 366Q386 290 419 257T526 224ZM396 1680L212 1958H424L598 1680H396Z" />
<glyph unicode="&#xd3;" horiz-adv-x="1055" d="M526 -20Q294 -20 192 73T84 382Q82 495 81 598T80 801T81 1004T84 1220Q89 1435 191 1527T526 1620Q754 1620 856 1528T966 1220Q971 1107 973 1004T975 800T973 597T966 382Q959 166 857 73T526 -20ZM526 224Q600
224 632 257T666 366Q671 476 674 584T677 801T674 1018T666 1236Q665 1311 633 1343T526 1376Q453 1376 420 1344T384 1236Q379 1127 377 1018T374 801T376 585T384 366Q386 290 419 257T526 224ZM436 1680L630 1958H842L638 1680H436Z" />
<glyph unicode="&#xd4;" horiz-adv-x="1055" d="M526 -20Q294 -20 192 73T84 382Q82 495 81 598T80 801T81 1004T84 1220Q89 1435 191 1527T526 1620Q754 1620 856 1528T966 1220Q971 1107 973 1004T975 800T973 597T966 382Q959 166 857 73T526 -20ZM526 224Q600
224 632 257T666 366Q671 476 674 584T677 801T674 1018T666 1236Q665 1311 633 1343T526 1376Q453 1376 420 1344T384 1236Q379 1127 377 1018T374 801T376 585T384 366Q386 290 419 257T526 224ZM254 1682L434 1960H614L794 1682H596L524 1806L452 1682H254Z"
/>
<glyph unicode="&#xd5;" horiz-adv-x="1055" d="M526 -20Q294 -20 192 73T84 382Q82 495 81 598T80 801T81 1004T84 1220Q89 1435 191 1527T526 1620Q754 1620 856 1528T966 1220Q971 1107 973 1004T975 800T973 597T966 382Q959 166 857 73T526 -20ZM526 224Q600
224 632 257T666 366Q671 476 674 584T677 801T674 1018T666 1236Q665 1311 633 1343T526 1376Q453 1376 420 1344T384 1236Q379 1127 377 1018T374 801T376 585T384 366Q386 290 419 257T526 224ZM690 1900H806Q799 1783 757 1732T636 1680Q588 1680 560 1694T512
1728T473 1761T425 1776Q393 1776 382 1755T366 1694H250Q259 1814 300 1870T425 1926Q473 1926 500 1912T546 1879T583 1846T633 1832Q664 1832 676 1849T690 1900Z" />
<glyph unicode="&#xd6;" horiz-adv-x="1055" d="M526 -20Q294 -20 192 73T84 382Q82 495 81 598T80 801T81 1004T84 1220Q89 1435 191 1527T526 1620Q754 1620 856 1528T966 1220Q971 1107 973 1004T975 800T973 597T966 382Q959 166 857 73T526 -20ZM526 224Q600
224 632 257T666 366Q671 476 674 584T677 801T674 1018T666 1236Q665 1311 633 1343T526 1376Q453 1376 420 1344T384 1236Q379 1127 377 1018T374 801T376 585T384 366Q386 290 419 257T526 224ZM582 1710V1908H780V1710H582ZM276 1710V1908H474V1710H276Z" />
<glyph unicode="&#xd7;" horiz-adv-x="1004" d="M242 312L80 470L338 714L80 958L242 1116L502 870L762 1116L924 958L666 714L924 470L762 312L502 558L242 312Z" />
<glyph unicode="&#xd8;" horiz-adv-x="1055" d="M526 -20Q294 -20 192 73T84 382Q82 495 81 598T80 801T81 1004T84 1220Q89 1435 191 1527T526 1620Q754 1620 856 1528T966 1220Q971 1107 973 1004T975 800T973 597T966 382Q959 166 857 73T526 -20ZM526 224Q600
224 632 257T666 366Q669 438 671 509T675 650T676 792L380 436Q382 418 382 401T384 366Q386 290 419 257T526 224ZM374 768L670 1128Q670 1155 669 1182T666 1236Q665 1311 633 1343T526 1376Q453 1376 420 1344T384 1236Q380 1158 378 1080T374 924T374 768Z"
/>
<glyph unicode="&#xd9;" horiz-adv-x="1054" d="M528 -20Q294 -20 192 73T86 382Q82 684 82 991T86 1600H386Q382 1399 382 1186T382 760T386 346Q386 288 422 256T528 224Q596 224 632 256T668 346Q670 547 671 760T673 1186T668 1600H968Q973 1299 973 992T968
382Q965 166 863 73T528 -20ZM396 1680L212 1958H424L598 1680H396Z" />
<glyph unicode="&#xda;" horiz-adv-x="1054" d="M528 -20Q294 -20 192 73T86 382Q82 684 82 991T86 1600H386Q382 1399 382 1186T382 760T386 346Q386 288 422 256T528 224Q596 224 632 256T668 346Q670 547 671 760T673 1186T668 1600H968Q973 1299 973 992T968
382Q965 166 863 73T528 -20ZM436 1680L630 1958H842L638 1680H436Z" />
<glyph unicode="&#xdb;" horiz-adv-x="1054" d="M528 -20Q294 -20 192 73T86 382Q82 684 82 991T86 1600H386Q382 1399 382 1186T382 760T386 346Q386 288 422 256T528 224Q596 224 632 256T668 346Q670 547 671 760T673 1186T668 1600H968Q973 1299 973 992T968
382Q965 166 863 73T528 -20ZM254 1682L434 1960H614L794 1682H596L524 1806L452 1682H254Z" />
<glyph unicode="&#xdc;" horiz-adv-x="1054" d="M528 -20Q294 -20 192 73T86 382Q82 684 82 991T86 1600H386Q382 1399 382 1186T382 760T386 346Q386 288 422 256T528 224Q596 224 632 256T668 346Q670 547 671 760T673 1186T668 1600H968Q973 1299 973 992T968
382Q965 166 863 73T528 -20ZM582 1710V1908H780V1710H582ZM276 1710V1908H474V1710H276Z" />
<glyph unicode="&#xdd;" horiz-adv-x="928" d="M314 0V510H282L14 1600H320L406 1212L436 742H492L522 1212L608 1600H914L644 510H614V0H314ZM374 1680L568 1958H780L576 1680H374Z" />
<glyph unicode="&#xde;" horiz-adv-x="980" d="M80 0V1600H380V1360H506Q730 1360 829 1270T936 970Q939 886 939 814T936 658Q929 450 830 359T506 268H380V0H80ZM380 532H506Q569 532 601 561T636 642Q639 691 640 752T640 875T636 986Q633 1039 601 1067T506
1096H380V532Z" />
<glyph unicode="&#xdf;" horiz-adv-x="1032" d="M80 0V1200Q80 1324 118 1413T252 1551T524 1600Q757 1600 857 1510T958 1210Q958 1179 958 1161T956 1104Q949 993 904 929T766 836V792Q868 764 917 698T970 514Q971 485 971 472T972 442T970 390Q963 237 910
153T758 34T520 0H480V264H520Q589 264 626 297T664 394Q664 421 664 447T664 500Q664 611 624 646T518 682H492V946H508Q579 946 616 990T654 1112Q654 1144 654 1161T653 1196T652 1246Q652 1299 619 1327T516 1356Q450 1356 419 1325T388 1246V0H80Z" />
<glyph unicode="&#xe0;" horiz-adv-x="1003" d="M345 -16Q204 -16 137 49T55 274Q54 291 54 318T55 360Q62 442 95 499T197 600T383 682Q443 702 496 715T619 744V892Q619 946 589 971T497 996Q443 996 417 975T387 906Q386 895 386 857T385 781T387 738H97Q96
750 95 791T95 872Q100 993 139 1070T267 1183T507 1220Q662 1220 750 1180T876 1052T913 824L911 0H613V130H567Q530 54 482 19T345 -16ZM471 198Q516 198 555 220T615 280L617 554Q577 545 536 535T459 510Q396 486 378 446T357 360Q356 335 356 326T357 296Q362
248 390 223T471 198ZM377 1280L193 1558H405L579 1280H377Z" />
<glyph unicode="&#xe1;" horiz-adv-x="1003" d="M345 -16Q204 -16 137 49T55 274Q54 291 54 318T55 360Q62 442 95 499T197 600T383 682Q443 702 496 715T619 744V892Q619 946 589 971T497 996Q443 996 417 975T387 906Q386 895 386 857T385 781T387 738H97Q96
750 95 791T95 872Q100 993 139 1070T267 1183T507 1220Q662 1220 750 1180T876 1052T913 824L911 0H613V130H567Q530 54 482 19T345 -16ZM471 198Q516 198 555 220T615 280L617 554Q577 545 536 535T459 510Q396 486 378 446T357 360Q356 335 356 326T357 296Q362
248 390 223T471 198ZM417 1280L611 1558H823L619 1280H417Z" />
<glyph unicode="&#xe2;" horiz-adv-x="1003" d="M345 -16Q204 -16 137 49T55 274Q54 291 54 318T55 360Q62 442 95 499T197 600T383 682Q443 702 496 715T619 744V892Q619 946 589 971T497 996Q443 996 417 975T387 906Q386 895 386 857T385 781T387 738H97Q96
750 95 791T95 872Q100 993 139 1070T267 1183T507 1220Q662 1220 750 1180T876 1052T913 824L911 0H613V130H567Q530 54 482 19T345 -16ZM471 198Q516 198 555 220T615 280L617 554Q577 545 536 535T459 510Q396 486 378 446T357 360Q356 335 356 326T357 296Q362
248 390 223T471 198ZM235 1282L415 1560H595L775 1282H577L505 1406L433 1282H235Z" />
<glyph unicode="&#xe3;" horiz-adv-x="1003" d="M345 -16Q204 -16 137 49T55 274Q54 291 54 318T55 360Q62 442 95 499T197 600T383 682Q443 702 496 715T619 744V892Q619 946 589 971T497 996Q443 996 417 975T387 906Q386 895 386 857T385 781T387 738H97Q96
750 95 791T95 872Q100 993 139 1070T267 1183T507 1220Q662 1220 750 1180T876 1052T913 824L911 0H613V130H567Q530 54 482 19T345 -16ZM471 198Q516 198 555 220T615 280L617 554Q577 545 536 535T459 510Q396 486 378 446T357 360Q356 335 356 326T357 296Q362
248 390 223T471 198ZM671 1500H787Q780 1383 738 1332T617 1280Q569 1280 541 1294T493 1328T454 1361T406 1376Q374 1376 363 1355T347 1294H231Q240 1414 281 1470T406 1526Q454 1526 481 1512T527 1479T564 1446T614 1432Q645 1432 657 1449T671 1500Z" />
<glyph unicode="&#xe4;" horiz-adv-x="1003" d="M345 -16Q204 -16 137 49T55 274Q54 291 54 318T55 360Q62 442 95 499T197 600T383 682Q443 702 496 715T619 744V892Q619 946 589 971T497 996Q443 996 417 975T387 906Q386 895 386 857T385 781T387 738H97Q96
750 95 791T95 872Q100 993 139 1070T267 1183T507 1220Q662 1220 750 1180T876 1052T913 824L911 0H613V130H567Q530 54 482 19T345 -16ZM471 198Q516 198 555 220T615 280L617 554Q577 545 536 535T459 510Q396 486 378 446T357 360Q356 335 356 326T357 296Q362
248 390 223T471 198ZM563 1310V1508H761V1310H563ZM257 1310V1508H455V1310H257Z" />
<glyph unicode="&#xe5;" horiz-adv-x="1003" d="M345 -16Q204 -16 137 49T55 274Q54 291 54 318T55 360Q62 442 95 499T197 600T383 682Q443 702 496 715T619 744V892Q619 946 589 971T497 996Q443 996 417 975T387 906Q386 895 386 857T385 781T387 738H97Q96
750 95 791T95 872Q100 993 139 1070T267 1183T507 1220Q662 1220 750 1180T876 1052T913 824L911 0H613V130H567Q530 54 482 19T345 -16ZM471 198Q516 198 555 220T615 280L617 554Q577 545 536 535T459 510Q396 486 378 446T357 360Q356 335 356 326T357 296Q362
248 390 223T471 198ZM509 1270Q421 1270 358 1333T295 1484Q295 1573 358 1635T509 1698Q598 1698 660 1636T723 1484Q723 1396 661 1333T509 1270ZM509 1424Q535 1424 552 1441T569 1484Q569 1510 552 1527T509 1544Q484 1544 467 1527T449 1484Q449 1459 466
1442T509 1424Z" />
<glyph unicode="&#xe6;" horiz-adv-x="1469" d="M335 -16Q212 -16 139 48T55 272Q54 295 54 318T55 360Q66 483 140 555T373 682Q430 702 483 715T591 742Q591 768 591 793T591 844T591 896Q591 921 585 944T558 981T489 996Q434 996 414 975T391 906Q390 885
390 852T389 788T391 738H95Q94 744 93 769T92 824T93 872Q98 993 138 1070T264 1183T497 1220Q581 1220 643 1208T749 1172Q799 1196 862 1208T1005 1220Q1211 1220 1304 1139T1407 872Q1408 854 1408 818T1409 735T1408 641T1405 550H891Q891 489 891 428T891
304Q891 250 921 227T1009 204Q1071 204 1089 231T1109 302Q1112 362 1112 394T1111 466H1405Q1407 456 1408 413T1407 336Q1398 146 1305 63T1009 -20Q870 -20 779 16T641 130H617Q580 52 503 18T335 -16ZM463 198Q490 198 519 210T570 266T593 402Q593 432 592
471T591 550Q557 543 519 533T451 510Q397 486 378 447T353 360Q352 342 352 327T355 294Q364 248 388 223T463 198ZM891 756H1111Q1111 789 1110 832T1109 908Q1109 955 1084 975T1005 996Q948 996 920 975T891 906Q891 869 891 832T891 756Z" />
<glyph unicode="&#xe7;" horiz-adv-x="970" d="M607 738Q608 758 608 790T609 854T607 906Q604 950 582 973T495 996Q432 996 408 975T381 906Q378 815 377 740T375 595T376 456T381 302Q383 250 409 227T499 204Q562 204 583 229T607 304Q609 334 609 371T607
466H905Q907 454 908 412T907 336Q898 146 803 63T499 -20Q277 -20 182 64T75 336Q72 383 71 457T70 611T71 759T75 860Q89 1054 187 1137T495 1220Q707 1220 802 1139T907 872Q909 839 908 793T905 738H607ZM243 -314V-174H307Q370 -174 396 -149T415 -66L403
20H555L567 -66Q585 -198 522 -256T307 -314H243Z" />
<glyph unicode="&#xe8;" horiz-adv-x="969" d="M499 -20Q277 -20 182 64T75 336Q72 383 71 457T70 611T71 759T75 860Q89 1054 187 1137T495 1220Q707 1220 802 1139T907 872Q908 848 908 793T909 672T905 550H375Q375 492 376 432T381 302Q383 250 409 227T499
204Q558 204 581 227T607 304Q609 334 609 371T607 466H905Q907 454 908 412T907 336Q898 146 803 63T499 -20ZM377 756H609Q609 790 609 821T609 874T607 906Q604 954 579 975T495 996Q432 996 408 975T381 906Q380 866 379 829T377 756ZM359 1280L175 1558H387L561
1280H359Z" />
<glyph unicode="&#xe9;" horiz-adv-x="969" d="M499 -20Q277 -20 182 64T75 336Q72 383 71 457T70 611T71 759T75 860Q89 1054 187 1137T495 1220Q707 1220 802 1139T907 872Q908 848 908 793T909 672T905 550H375Q375 492 376 432T381 302Q383 250 409 227T499
204Q558 204 581 227T607 304Q609 334 609 371T607 466H905Q907 454 908 412T907 336Q898 146 803 63T499 -20ZM377 756H609Q609 790 609 821T609 874T607 906Q604 954 579 975T495 996Q432 996 408 975T381 906Q380 866 379 829T377 756ZM399 1280L593 1558H805L601
1280H399Z" />
<glyph unicode="&#xea;" horiz-adv-x="969" d="M499 -20Q277 -20 182 64T75 336Q72 383 71 457T70 611T71 759T75 860Q89 1054 187 1137T495 1220Q707 1220 802 1139T907 872Q908 848 908 793T909 672T905 550H375Q375 492 376 432T381 302Q383 250 409 227T499
204Q558 204 581 227T607 304Q609 334 609 371T607 466H905Q907 454 908 412T907 336Q898 146 803 63T499 -20ZM377 756H609Q609 790 609 821T609 874T607 906Q604 954 579 975T495 996Q432 996 408 975T381 906Q380 866 379 829T377 756ZM217 1282L397 1560H577L757
1282H559L487 1406L415 1282H217Z" />
<glyph unicode="&#xeb;" horiz-adv-x="969" d="M499 -20Q277 -20 182 64T75 336Q72 383 71 457T70 611T71 759T75 860Q89 1054 187 1137T495 1220Q707 1220 802 1139T907 872Q908 848 908 793T909 672T905 550H375Q375 492 376 432T381 302Q383 250 409 227T499
204Q558 204 581 227T607 304Q609 334 609 371T607 466H905Q907 454 908 412T907 336Q898 146 803 63T499 -20ZM377 756H609Q609 790 609 821T609 874T607 906Q604 954 579 975T495 996Q432 996 408 975T381 906Q380 866 379 829T377 756ZM545 1310V1508H743V1310H545ZM239
1310V1508H437V1310H239Z" />
<glyph unicode="&#xec;" horiz-adv-x="488" d="M94 0V1200H394V0H94ZM112 1280L-72 1558H140L314 1280H112Z" />
<glyph unicode="&#xed;" horiz-adv-x="488" d="M94 0V1200H394V0H94ZM152 1280L346 1558H558L354 1280H152Z" />
<glyph unicode="&#xee;" horiz-adv-x="488" d="M94 0V1200H394V0H94ZM226 1282L406 1560H586L766 1282H568L496 1406L424 1282H226Z" />
<glyph unicode="&#xef;" horiz-adv-x="488" d="M94 0V1200H394V0H94ZM554 1310V1508H752V1310H554ZM248 1310V1508H446V1310H248Z" />
<glyph unicode="&#xf0;" horiz-adv-x="1032" d="M530 -20Q301 -20 198 73T84 382Q81 436 81 494T80 611T82 724Q85 877 170 969T382 1062Q465 1062 523 1032T606 952H632Q614 1006 587 1058T524 1156L394 1096L330 1222L422 1264Q388 1293 349 1318T266 1366L430
1620Q511 1575 577 1525T698 1418L850 1486L914 1360L790 1304Q877 1177 919 1025T970 696Q972 660 972 601T973 482T970 384Q963 239 918 150T779 21T530 -20ZM528 224Q593 224 627 250T664 324Q668 397 669 469T670 607T664 730Q661 774 625 797T522 820Q455
820 422 791T386 714Q385 671 385 603T387 461T390 326Q392 277 426 251T528 224Z" />
<glyph unicode="&#xf1;" horiz-adv-x="1070" d="M94 0V1200H394V1070H452Q497 1142 548 1181T698 1220Q833 1220 906 1142T980 882V0H680V908Q680 956 651 979T568 1002Q522 1002 468 979T394 916V0H94ZM700 1500H816Q809 1383 767 1332T646 1280Q598 1280 570
1294T522 1328T483 1361T435 1376Q403 1376 392 1355T376 1294H260Q269 1414 310 1470T435 1526Q483 1526 510 1512T556 1479T593 1446T643 1432Q674 1432 686 1449T700 1500Z" />
<glyph unicode="&#xf2;" horiz-adv-x="1010" d="M506 -20Q353 -20 261 20T126 148T74 382Q72 420 71 478T70 602T71 726T74 820Q83 967 127 1055T262 1181T506 1220Q662 1220 753 1179T886 1050T936 820Q938 782 939 723T941 599T940 476T936 382Q927 237 885
149T752 20T506 -20ZM506 204Q575 204 604 230T634 306Q637 395 638 468T640 609T639 746T634 896Q633 944 604 970T506 996Q439 996 408 968T374 896Q372 835 371 765T370 618T371 464T376 306Q378 257 408 231T506 204ZM374 1280L190 1558H402L576 1280H374Z"
/>
<glyph unicode="&#xf3;" horiz-adv-x="1010" d="M506 -20Q353 -20 261 20T126 148T74 382Q72 420 71 478T70 602T71 726T74 820Q83 967 127 1055T262 1181T506 1220Q662 1220 753 1179T886 1050T936 820Q938 782 939 723T941 599T940 476T936 382Q927 237 885
149T752 20T506 -20ZM506 204Q575 204 604 230T634 306Q637 395 638 468T640 609T639 746T634 896Q633 944 604 970T506 996Q439 996 408 968T374 896Q372 835 371 765T370 618T371 464T376 306Q378 257 408 231T506 204ZM414 1280L608 1558H820L616 1280H414Z"
/>
<glyph unicode="&#xf4;" horiz-adv-x="1010" d="M506 -20Q353 -20 261 20T126 148T74 382Q72 420 71 478T70 602T71 726T74 820Q83 967 127 1055T262 1181T506 1220Q662 1220 753 1179T886 1050T936 820Q938 782 939 723T941 599T940 476T936 382Q927 237 885
149T752 20T506 -20ZM506 204Q575 204 604 230T634 306Q637 395 638 468T640 609T639 746T634 896Q633 944 604 970T506 996Q439 996 408 968T374 896Q372 835 371 765T370 618T371 464T376 306Q378 257 408 231T506 204ZM232 1282L412 1560H592L772 1282H574L502
1406L430 1282H232Z" />
<glyph unicode="&#xf5;" horiz-adv-x="1010" d="M506 -20Q353 -20 261 20T126 148T74 382Q72 420 71 478T70 602T71 726T74 820Q83 967 127 1055T262 1181T506 1220Q662 1220 753 1179T886 1050T936 820Q938 782 939 723T941 599T940 476T936 382Q927 237 885
149T752 20T506 -20ZM506 204Q575 204 604 230T634 306Q637 395 638 468T640 609T639 746T634 896Q633 944 604 970T506 996Q439 996 408 968T374 896Q372 835 371 765T370 618T371 464T376 306Q378 257 408 231T506 204ZM668 1500H784Q777 1383 735 1332T614 1280Q566
1280 538 1294T490 1328T451 1361T403 1376Q371 1376 360 1355T344 1294H228Q237 1414 278 1470T403 1526Q451 1526 478 1512T524 1479T561 1446T611 1432Q642 1432 654 1449T668 1500Z" />
<glyph unicode="&#xf6;" horiz-adv-x="1010" d="M506 -20Q353 -20 261 20T126 148T74 382Q72 420 71 478T70 602T71 726T74 820Q83 967 127 1055T262 1181T506 1220Q662 1220 753 1179T886 1050T936 820Q938 782 939 723T941 599T940 476T936 382Q927 237 885
149T752 20T506 -20ZM506 204Q575 204 604 230T634 306Q637 395 638 468T640 609T639 746T634 896Q633 944 604 970T506 996Q439 996 408 968T374 896Q372 835 371 765T370 618T371 464T376 306Q378 257 408 231T506 204ZM560 1310V1508H758V1310H560ZM254 1310V1508H452V1310H254Z"
/>
<glyph unicode="&#xf7;" horiz-adv-x="1112" d="M80 602V826H1032V602H80ZM444 946V1164H670V946H444ZM444 264V482H670V264H444Z" />
<glyph unicode="&#xf8;" horiz-adv-x="1010" d="M158 344L814 1006L916 902L158 138V344ZM506 -20Q353 -20 261 20T126 148T74 382Q72 420 71 478T70 602T71 726T74 820Q83 967 127 1055T262 1181T506 1220Q662 1220 753 1179T886 1050T936 820Q938 782 939 723T941
599T940 476T936 382Q927 237 885 149T752 20T506 -20ZM506 204Q575 204 604 230T634 306Q637 395 638 468T640 609T639 746T634 896Q633 944 604 970T506 996Q439 996 408 968T374 896Q372 835 371 765T370 618T371 464T376 306Q378 257 408 231T506 204Z" />
<glyph unicode="&#xf9;" horiz-adv-x="1062" d="M376 -20Q244 -20 165 58T86 318V1200H388L392 292Q392 244 416 221T494 198Q542 198 592 221T662 284V1200H968V0H662V130H622Q573 49 515 15T376 -20ZM392 1280L208 1558H420L594 1280H392Z" />
<glyph unicode="&#xfa;" horiz-adv-x="1062" d="M376 -20Q244 -20 165 58T86 318V1200H388L392 292Q392 244 416 221T494 198Q542 198 592 221T662 284V1200H968V0H662V130H622Q573 49 515 15T376 -20ZM432 1280L626 1558H838L634 1280H432Z" />
<glyph unicode="&#xfb;" horiz-adv-x="1062" d="M376 -20Q244 -20 165 58T86 318V1200H388L392 292Q392 244 416 221T494 198Q542 198 592 221T662 284V1200H968V0H662V130H622Q573 49 515 15T376 -20ZM250 1282L430 1560H610L790 1282H592L520 1406L448 1282H250Z" />
<glyph unicode="&#xfc;" horiz-adv-x="1062" d="M376 -20Q244 -20 165 58T86 318V1200H388L392 292Q392 244 416 221T494 198Q542 198 592 221T662 284V1200H968V0H662V130H622Q573 49 515 15T376 -20ZM578 1310V1508H776V1310H578ZM272 1310V1508H470V1310H272Z" />
<glyph unicode="&#xfd;" horiz-adv-x="948" d="M232 -422Q196 -422 156 -418T76 -408V-186Q105 -187 153 -188T232 -190Q319 -190 353 -167T396 -90L410 0H257L30 1200H340L398 658L445 220H520L555 658L610 1200H920L702 -66Q682 -181 638 -260T498 -381T232
-422ZM382 1280L576 1558H788L584 1280H382Z" />
<glyph unicode="&#xfe;" horiz-adv-x="1046" d="M80 -400V1600H386V1070H428Q473 1142 522 1181T674 1220Q806 1220 879 1142T962 882Q964 832 965 756T967 597T966 440T962 318Q953 137 872 59T658 -20Q585 -20 532 14T428 130H386V-400H80ZM534 198Q588 198
620 221T656 292Q661 360 663 440T665 604T663 768T656 916Q653 958 628 980T552 1002Q506 1002 456 979T386 916V284Q409 238 444 218T534 198Z" />
<glyph unicode="&#xff;" horiz-adv-x="948" d="M232 -422Q196 -422 156 -418T76 -408V-186Q105 -187 153 -188T232 -190Q319 -190 353 -167T396 -90L410 0H257L30 1200H340L398 658L445 220H520L555 658L610 1200H920L702 -66Q682 -181 638 -260T498 -381T232
-422ZM528 1310V1508H726V1310H528ZM222 1310V1508H420V1310H222Z" />
<glyph unicode="&#x2013;" horiz-adv-x="1132" d="M60 576V840H1072V576H60Z" />
<glyph unicode="&#x2014;" horiz-adv-x="1844" d="M60 576V840H1784V576H60Z" />
<glyph unicode="&#x2018;" horiz-adv-x="542" d="M80 1032V1290L258 1600H424L286 1316H462V1032H80Z" />
<glyph unicode="&#x2019;" horiz-adv-x="542" d="M118 1032L256 1316H80V1600H462V1342L284 1032H118Z" />
<glyph unicode="&#x201a;" horiz-adv-x="542" d="M118 -284L256 0H80V284H462V26L284 -284H118Z" />
<glyph unicode="&#x201c;" horiz-adv-x="944" d="M514 1032V1290L686 1600H842L714 1316H874V1032H514ZM70 1032V1290L240 1600H398L268 1316H428V1032H70Z" />
<glyph unicode="&#x201d;" horiz-adv-x="944" d="M102 1032L230 1316H70V1600H428V1342L258 1032H102ZM546 1032L676 1316H514V1600H874V1342L704 1032H546Z" />
<glyph unicode="&#x201e;" horiz-adv-x="1060" d="M118 -284L256 0H80V284H462V26L284 -284H118ZM636 -284L774 0H598V284H980V26L802 -284H636Z" />
<glyph unicode="&#x2022;" horiz-adv-x="580" d="M80 620V1000H500V620H80Z" />
<glyph unicode="&#x2039;" horiz-adv-x="498" d="M418 838L60 494V766L418 1110V838ZM418 150L60 494V766L418 422V150Z" />
<glyph unicode="&#x203a;" horiz-adv-x="498" d="M80 838V1110L438 766V494L80 838ZM80 150V422L438 766V494L80 150Z" />
</font>
</defs>
</svg>
